Autoscope от А до Я скачать

Autoscope от А до Я скачать.rar
Закачек 1829
Средняя скорость 4032 Kb/s
Скачать

Autoscope от А до Я скачать

Стаж: 7 лет 4 месяца

Название: Autoscope от А до Я

Автор: Алексей Пахомов

Год выхода: 2015

Формат: Autorun, MP4

Видео: AVC, 1280×720,

Аудио: AAC, 128 Kbps, 48.0 KHz

05-Дек-2015 05:30 (2 года 5 месяцев назад)

Вы не можете начинать темы

Вы не можете отвечать на сообщения

Вы не можете редактировать свои сообщения

Вы не можете удалять свои сообщения

Вы не можете голосовать в опросах

Вы не можете прикреплять файлы к сообщениям

Вы не можете скачивать файлы

Powered by TorrentPier II © Meithar, TorrentPier II Team

Сайт не предоставляет электронные версии произведений, а занимается лишь коллекционированием и каталогизацией ссылок, присылаемых и публикуемых на форуме нашими читателями. Если вы являетесь правообладателем какого-либо представленного материала и не желаете, чтобы ссылка на него находилась в нашем каталоге, свяжитесь с нами, и мы незамедлительно удалим ее. Файлы для обмена на трекере предоставлены пользователями сайта, и администрация не несет ответственности за их содержание. Просьба не заливать файлы, защищенные авторскими правами, а также файлы нелегального содержания!

Добавлено: 28 дек 2015, 22:56

Автор (режиссер): Алексей Пахомов

Название: Autoscope от А до Я

Жанр: Autoscope

Описание: Видеокурс «Autoscope от А до Я» от школы автодиагностики Алексея Пахомова — это полное пошаговое руководство к замечательному мотортестеру Autoscope IV

Продолжительность: 9:53:01

Качество видео: PCRec

Видео: AVC, 1280×720, 1920х1080

Аудио: AAC, 2ch, 128Kbps, CBR

Код:

Общий поток : 1329 Кбит/сек

Программа кодирования : Lavf56.25.101

Формат/Информация : Advanced Video Codec

Параметр CABAC формата : Да

Параметр ReFrames формата : 4 кадра

Идентификатор кодека : avc1

Идентификатор кодека/Информация : Advanced Video Coding

Продолжительность : 29 м.

Битрейт : 1195 Кбит/сек

Ширина : 1280 пикселей

Высота : 720 пикселей

Соотношение сторон : 16:9

Режим частоты кадров : Постоянный

Частота кадров : 25,000 кадров/сек

Цветовое пространство : YUV

Субдискретизация насыщенности : 4:2:0

Битовая глубина : 8 бит

Тип развёртки : Прогрессивная

Размер потока : 250 Мбайт (90%)

Библиотека кодирования : x264 core 120 r2146 bcd41db

Формат/Информация : Advanced Audio Codec

Профиль формата : LC

Идентификатор кодека : 40

Продолжительность : 29 м.

Вид битрейта : Постоянный

Битрейт : 128 Кбит/сек

Каналы : 2 канала

Расположение каналов : Front: L R

Частота : 48,0 КГц

Метод сжатия : С потерями

Размер потока : 26,8 Мбайт (10%)

Недавно мне позвонил человек и сказал примерно следующее: «Я купил осциллограф Постоловского. Научите меня им работать!» Ответить сложно. Это все равно, что ответить на просьбу «Я купил скальпель, научите меня делать операции на сердце». В медицинских институтах студенты несколько лет изучают строение человеческого организма и только после этого берут в руки скальпель. Точно так же и с мотортестером. Нужно понимать, как работает двигатель, что именно вы измеряете, и только после этого станет ясно, как выполняется это измерение.

Скриншоты:

Время раздачи: 09.00-24.00. До 10 скачавших.


Статьи по теме